Sign Up   |   Sign In  
Star Trek: DiscoveryEvilGrey's AnatomyThe Blue AngelsWhere Eagles DarePablo Escobar: Countdown to DeathThe Good DoctorConcordiaReunionHacksThe Fall GuyOne, Two, ManyChicago FireChicago P.D.The RookieCarol Doda Topless at the CondorWater's EdgeLadies and Gentlemen: The Rolling StonesFBIFBI: Most WantedThe Bold and the BeautifulBoy Kills WorldMad GodRachel Feinstein: Big GuyDark Matter

Announcements

05/10

2024

1

Comments

Young Sheldon S07E11 A Little Snip and Teaching Old Dogs 720p AMZN WEB-DL DDP5 1 H 264-NTb
[RR/NF/CU]
Size: 595MB mkv H264 (HIGH) / EAC3  HD  1280x720

Young Sheldon
File Information
[img]http://lookpic.com/cdn/i2/t/0510202406303909-1.jpg[/img]
[img]http://lookpic.com/cdn/i2/t/0510202406303909-2.jpg[/img]
[img]http://lookpic.com/cdn/i2/t/0510202406303909-3.jpg[/img]

General
Unique ID                                : 97975444735225559838044863346056113800 (0x49B562605F47305E74D7D44666D42E88)
Complete name                            : Young Sheldon S07E11 A Little Snip and Teaching Old Dogs 720p AMZN WEB-DL DDP5 1 H 264-NTb.mkv
Format                                   : Matroska
Format version                           : Version 4
File size                                : 595 MiB
Duration                                 : 18 min 44 s
Overall bit rate                         : 4 442 kb/s
Frame rate                               : 23.976 FPS
Writing application                      : mkvmerge v81.0 ('Milliontown') 64-bit
Writing library                          : libebml v1.4.4 + libmatroska v1.7.1

Video
ID                                       : 1
Format                                   : AVC
Format/Info                              : Advanced Video Codec
Format profile                           : [email protected]
Format settings                          : CABAC / 4 Ref Frames
Format settings, CABAC                   : Yes
Format settings, Reference frames        : 4 frames
Codec ID                                 : V_MPEG4/ISO/AVC
Duration                                 : 18 min 44 s
Bit rate mode                            : Constant
Bit rate                                 : 3 799 kb/s
Nominal bit rate                         : 4 000 kb/s
Width                                    : 1 280 pixels
Height                                   : 720 pixels
Display aspect ratio                     : 16:9
Frame rate mode                          : Constant
Frame rate                               : 23.976 (24000/1001) FPS
Color space                              : YUV
Chroma subsampling                       : 4:2:0
Bit depth                                : 8 bits
Scan type                                : Progressive
Bits/(Pixel*Frame)                       : 0.172
Stream size                              : 509 MiB (86%)
Default                                  : Yes
Forced                                   : No
Color range                              : Limited
Color primaries                          : BT.709
Transfer characteristics                 : BT.709
Matrix coefficients                      : BT.709

Audio
ID                                       : 2
Format                                   : E-AC-3
Format/Info                              : Enhanced AC-3
Commercial name                          : Dolby Digital Plus
Codec ID                                 : A_EAC3
Duration                                 : 18 min 44 s
Bit rate mode                            : Constant
Bit rate                                 : 640 kb/s
Channel(s)                               : 6 channels
Channel layout                           : L R C LFE Ls Rs
Sampling rate                            : 48.0 kHz
Frame rate                               : 31.250 FPS (1536 SPF)
Compression mode                         : Lossy
Stream size                              : 85.8 MiB (14%)
Language                                 : English (US)
Service kind                             : Complete Main
Default                                  : Yes
Forced                                   : No

Text #1
ID                                       : 3
Format                                   : UTF-8
Codec ID                                 : S_TEXT/UTF8
Codec ID/Info                            : UTF-8 Plain Text
Duration                                 : 18 min 30 s
Bit rate                                 : 105 b/s
Frame rate                               : 0.434 FPS
Count of elements                        : 482
Stream size                              : 14.3 KiB (0%)
Language                                 : English (US)
Default                                  : No
Forced                                   : No

Text #2
ID                                       : 4
Format                                   : UTF-8
Codec ID                                 : S_TEXT/UTF8
Codec ID/Info                            : UTF-8 Plain Text
Duration                                 : 18 min 30 s
Bit rate                                 : 111 b/s
Frame rate                               : 0.457 FPS
Count of elements                        : 507
Stream size                              : 15.1 KiB (0%)
Title                                    : SDH
Language                                 : English (US)
Default                                  : No
Forced                                   : No



Download
File Container: MKV
Video/Audio Codec: H264 (HIGH) EAC3
Video Resolution: 1280x720

1 Response to "[RR/NF/CU] Young Sheldon S07E11 A Little Snip and Teaching Old Dogs 720p AMZN WEB-DL DDP5 1 H 264-NTb (595MB)"
05/10/24
09:37:46
ReadyPlayerOne

Thank You

Please Login to post a comment.
If you don't have any account, please Register.
  • Subscribe my Feeds
  • Facebook
Encoding Queue:  x264  x265

Latest Episodes

Popular Movies and TV Shows

  • Star Trek: Discovery
  • Evil
  • Grey's Anatomy
  • The Blue Angels
  • Where Eagles Dare
  • Pablo Escobar: Countdown to Death
  • The Good Doctor
  • Concordia
  • Reunion
  • Hacks
  • The Fall Guy
  • One, Two, Many
  • Chicago Fire
  • Chicago P.D.
  • The Rookie
  • Carol Doda Topless at the Condor
  • Water's Edge
  • Ladies and Gentlemen: The Rolling Stones
  • FBI
  • FBI: Most Wanted
  • The Bold and the Beautiful
  • Boy Kills World
  • Mad God
  • Rachel Feinstein: Big Guy
  • Dark Matter

Recent Comments

  • big_ralphie: Just sitting down to watch and, yes there are subtitles...in ITALIAN ONLY. ENGLISH subs might be hel...
  • Geependo:

    All links are dead

  • OldMovies:

    Has Czech subtitles but not English. Need forced English for the foreign language parts.

  • PROFessorMorrynarty: Would it be possible to upload 'Lego masters Australia' Series 6 Episode 6 Please? It's the only one...
  • mentalityx:

    Thx mate.

  • Bud: Is the search engine down for everyone, or just me? It just says 'You're forbidden!' whenever I lo...
  • 23d1:

    not episode 4 it is episode 3

  • 23d1:

    not episode 4 it is episode 3

  • 23d1:

    not episode 4 it is episode 3

  • 23d1:

    not episode 4 it is episode 3

Archives