Sign Up   |   Sign In  
Beacon 23The NevermetsThe Young OffendersWWE King and Queen of the RingGaga Chromatica BallKilling CrabsRebusWWE Smackdown!FBI: Most WantedAtlasKnox Goes AwayThe Beach BoysCivil WarThe RookieSouth ParkDoctor Who5lbs of PressureFuriosa: A Mad Max SagaWWE NXTStar Trek: DiscoverySurvivorThe Fall GuySouth Park: The End of ObesityHalf Baked: Totally HighThe Daily Show

Announcements

05/13

2024

1

Comments

The Sympathizer S01E05 All for One 720p AMZN WEB-DL DDP5 1 H 264-NTb
[RR/NF/CU]
Size: 1.8GB mkv H264 (HIGH) / EAC3  HD  1280x640

The Sympathizer
File Information
[img]http://lookpic.com/cdn/i2/t/0513202403353899-1.jpg[/img]
[img]http://lookpic.com/cdn/i2/t/0513202403353899-2.jpg[/img]
[img]http://lookpic.com/cdn/i2/t/0513202403353899-3.jpg[/img]

General
Unique ID                                : 328635066070785526572907330673016733080 (0xF73CCFBB53D517FA35DE2C6EAC2A7D98)
Complete name                            : The Sympathizer S01E05 All for One 720p AMZN WEB-DL DDP5 1 H 264-NTb.mkv
Format                                   : Matroska
Format version                           : Version 4
File size                                : 1.82 GiB
Duration                                 : 57 min 20 s
Overall bit rate                         : 4 556 kb/s
Frame rate                               : 23.976 FPS
Writing application                      : mkvmerge v81.0 ('Milliontown') 64-bit
Writing library                          : libebml v1.4.4 + libmatroska v1.7.1

Video
ID                                       : 1
Format                                   : AVC
Format/Info                              : Advanced Video Codec
Format profile                           : [email protected]
Format settings                          : CABAC / 4 Ref Frames
Format settings, CABAC                   : Yes
Format settings, Reference frames        : 4 frames
Codec ID                                 : V_MPEG4/ISO/AVC
Duration                                 : 57 min 20 s
Bit rate mode                            : Constant
Bit rate                                 : 3 784 kb/s
Nominal bit rate                         : 4 000 kb/s
Width                                    : 1 280 pixels
Height                                   : 640 pixels
Display aspect ratio                     : 2.000
Frame rate mode                          : Constant
Frame rate                               : 23.976 (24000/1001) FPS
Color space                              : YUV
Chroma subsampling                       : 4:2:0
Bit depth                                : 8 bits
Scan type                                : Progressive
Bits/(Pixel*Frame)                       : 0.193
Stream size                              : 1.52 GiB (83%)
Default                                  : Yes
Forced                                   : No
Color range                              : Limited
Color primaries                          : BT.709
Transfer characteristics                 : BT.709
Matrix coefficients                      : BT.709

Audio
ID                                       : 2
Format                                   : E-AC-3 JOC
Format/Info                              : Enhanced AC-3 with Joint Object Coding
Commercial name                          : Dolby Digital Plus with Dolby Atmos
Codec ID                                 : A_EAC3
Duration                                 : 57 min 20 s
Bit rate mode                            : Constant
Bit rate                                 : 768 kb/s
Channel(s)                               : 6 channels
Channel layout                           : L R C LFE Ls Rs
Sampling rate                            : 48.0 kHz
Frame rate                               : 31.250 FPS (1536 SPF)
Compression mode                         : Lossy
Stream size                              : 315 MiB (17%)
Language                                 : English
Service kind                             : Complete Main
Default                                  : Yes
Forced                                   : No
Complexity index                         : 16
Number of dynamic objects                : 15
Bed channel count                        : 1 channel
Bed channel configuration                : LFE

Text #1
ID                                       : 3
Format                                   : UTF-8
Codec ID                                 : S_TEXT/UTF8
Codec ID/Info                            : UTF-8 Plain Text
Duration                                 : 51 min 55 s
Bit rate                                 : 47 b/s
Frame rate                               : 0.155 FPS
Count of elements                        : 484
Stream size                              : 18.0 KiB (0%)
Language                                 : English (US)
Default                                  : No
Forced                                   : No

Text #2
ID                                       : 4
Format                                   : UTF-8
Codec ID                                 : S_TEXT/UTF8
Codec ID/Info                            : UTF-8 Plain Text
Duration                                 : 57 min 9 s
Bit rate                                 : 54 b/s
Frame rate                               : 0.208 FPS
Count of elements                        : 713
Stream size                              : 22.6 KiB (0%)
Title                                    : SDH
Language                                 : English (US)
Default                                  : No
Forced                                   : No

Text #3
ID                                       : 5
Format                                   : UTF-8
Codec ID                                 : S_TEXT/UTF8
Codec ID/Info                            : UTF-8 Plain Text
Duration                                 : 57 min 7 s
Bit rate                                 : 104 b/s
Frame rate                               : 0.203 FPS
Count of elements                        : 697
Stream size                              : 43.5 KiB (0%)
Language                                 : Bulgarian (BG)
Default                                  : No
Forced                                   : No

Text #4
ID                                       : 6
Format                                   : UTF-8
Codec ID                                 : S_TEXT/UTF8
Codec ID/Info                            : UTF-8 Plain Text
Duration                                 : 57 min 7 s
Bit rate                                 : 54 b/s
Frame rate                               : 0.177 FPS
Count of elements                        : 606
Stream size                              : 22.9 KiB (0%)
Language                                 : Czech (CZ)
Default                                  : No
Forced                                   : No

Text #5
ID                                       : 7
Format                                   : UTF-8
Codec ID                                 : S_TEXT/UTF8
Codec ID/Info                            : UTF-8 Plain Text
Duration                                 : 56 min 52 s
Bit rate                                 : 59 b/s
Frame rate                               : 0.163 FPS
Count of elements                        : 556
Stream size                              : 24.6 KiB (0%)
Language                                 : Danish (DK)
Default                                  : No
Forced                                   : No

Text #6
ID                                       : 8
Format                                   : UTF-8
Codec ID                                 : S_TEXT/UTF8
Codec ID/Info                            : UTF-8 Plain Text
Duration                                 : 56 min 52 s
Bit rate                                 : 62 b/s
Frame rate                               : 0.223 FPS
Count of elements                        : 761
Stream size                              : 25.9 KiB (0%)
Title                                    : Spanish (Latin America)
Language                                 : Spanish (Latin America)
Default                                  : No
Forced                                   : No

Text #7
ID                                       : 9
Format                                   : UTF-8
Codec ID                                 : S_TEXT/UTF8
Codec ID/Info                            : UTF-8 Plain Text
Duration                                 : 53 min 55 s
Bit rate                                 : 64 b/s
Frame rate                               : 0.216 FPS
Count of elements                        : 699
Stream size                              : 25.6 KiB (0%)
Title                                    : Spanish (Spain)
Language                                 : Spanish (ES)
Default                                  : No
Forced                                   : No

Text #8
ID                                       : 10
Format                                   : UTF-8
Codec ID                                 : S_TEXT/UTF8
Codec ID/Info                            : UTF-8 Plain Text
Duration                                 : 56 min 52 s
Bit rate                                 : 51 b/s
Frame rate                               : 0.193 FPS
Count of elements                        : 658
Stream size                              : 21.4 KiB (0%)
Language                                 : Estonian (EE)
Default                                  : No
Forced                                   : No

Text #9
ID                                       : 11
Format                                   : UTF-8
Codec ID                                 : S_TEXT/UTF8
Codec ID/Info                            : UTF-8 Plain Text
Duration                                 : 56 min 52 s
Bit rate                                 : 60 b/s
Frame rate                               : 0.191 FPS
Count of elements                        : 652
Stream size                              : 25.3 KiB (0%)
Language                                 : Finnish (FI)
Default                                  : No
Forced                                   : No

Text #10
ID                                       : 12
Format                                   : UTF-8
Codec ID                                 : S_TEXT/UTF8
Codec ID/Info                            : UTF-8 Plain Text
Duration                                 : 57 min 7 s
Bit rate                                 : 49 b/s
Frame rate                               : 0.192 FPS
Count of elements                        : 658
Stream size                              : 20.8 KiB (0%)
Language                                 : Croatian (HR)
Default                                  : No
Forced                                   : No

Text #11
ID                                       : 13
Format                                   : UTF-8
Codec ID                                 : S_TEXT/UTF8
Codec ID/Info                            : UTF-8 Plain Text
Duration                                 : 57 min 7 s
Bit rate                                 : 57 b/s
Frame rate                               : 0.195 FPS
Count of elements                        : 667
Stream size                              : 24.0 KiB (0%)
Language                                 : Hungarian (HU)
Default                                  : No
Forced                                   : No

Text #12
ID                                       : 14
Format                                   : UTF-8
Codec ID                                 : S_TEXT/UTF8
Codec ID/Info                            : UTF-8 Plain Text
Duration                                 : 56 min 52 s
Bit rate                                 : 57 b/s
Frame rate                               : 0.194 FPS
Count of elements                        : 661
Stream size                              : 23.8 KiB (0%)
Language                                 : Lithuanian (LT)
Default                                  : No
Forced                                   : No

Text #13
ID                                       : 15
Format                                   : UTF-8
Codec ID                                 : S_TEXT/UTF8
Codec ID/Info                            : UTF-8 Plain Text
Duration                                 : 56 min 52 s
Bit rate                                 : 56 b/s
Frame rate                               : 0.195 FPS
Count of elements                        : 667
Stream size                              : 23.5 KiB (0%)
Language                                 : Latvian (LV)
Default                                  : No
Forced                                   : No

Text #14
ID                                       : 16
Format                                   : UTF-8
Codec ID                                 : S_TEXT/UTF8
Codec ID/Info                            : UTF-8 Plain Text
Duration                                 : 57 min 7 s
Bit rate                                 : 99 b/s
Frame rate                               : 0.176 FPS
Count of elements                        : 603
Stream size                              : 41.8 KiB (0%)
Language                                 : Macedonian (MK)
Default                                  : No
Forced                                   : No

Text #15
ID                                       : 17
Format                                   : UTF-8
Codec ID                                 : S_TEXT/UTF8
Codec ID/Info                            : UTF-8 Plain Text
Duration                                 : 56 min 52 s
Bit rate                                 : 58 b/s
Frame rate                               : 0.180 FPS
Count of elements                        : 614
Stream size                              : 24.5 KiB (0%)
Language                                 : Dutch (NL)
Default                                  : No
Forced                                   : No

Text #16
ID                                       : 18
Format                                   : UTF-8
Codec ID                                 : S_TEXT/UTF8
Codec ID/Info                            : UTF-8 Plain Text
Duration                                 : 56 min 52 s
Bit rate                                 : 54 b/s
Frame rate                               : 0.136 FPS
Count of elements                        : 463
Stream size                              : 22.9 KiB (0%)
Language                                 : Norwegian (NO)
Default                                  : No
Forced                                   : No

Text #17
ID                                       : 19
Format                                   : UTF-8
Codec ID                                 : S_TEXT/UTF8
Codec ID/Info                            : UTF-8 Plain Text
Duration                                 : 57 min 7 s
Bit rate                                 : 48 b/s
Frame rate                               : 0.188 FPS
Count of elements                        : 646
Stream size                              : 20.4 KiB (0%)
Language                                 : Polish (PL)
Default                                  : No
Forced                                   : No

Text #18
ID                                       : 20
Format                                   : UTF-8
Codec ID                                 : S_TEXT/UTF8
Codec ID/Info                            : UTF-8 Plain Text
Duration                                 : 56 min 52 s
Bit rate                                 : 19 b/s
Frame rate                               : 0.074 FPS
Count of elements                        : 254
Stream size                              : 7.99 KiB (0%)
Title                                    : Portuguese (Brazil)
Language                                 : Portuguese (BR)
Default                                  : No
Forced                                   : No

Text #19
ID                                       : 21
Format                                   : UTF-8
Codec ID                                 : S_TEXT/UTF8
Codec ID/Info                            : UTF-8 Plain Text
Duration                                 : 56 min 52 s
Bit rate                                 : 61 b/s
Frame rate                               : 0.197 FPS
Count of elements                        : 672
Stream size                              : 25.8 KiB (0%)
Title                                    : Portuguese (Portugal)
Language                                 : Portuguese (PT)
Default                                  : No
Forced                                   : No

Text #20
ID                                       : 22
Format                                   : UTF-8
Codec ID                                 : S_TEXT/UTF8
Codec ID/Info                            : UTF-8 Plain Text
Duration                                 : 57 min 7 s
Bit rate                                 : 61 b/s
Frame rate                               : 0.192 FPS
Count of elements                        : 658
Stream size                              : 25.6 KiB (0%)
Language                                 : Romanian (RO)
Default                                  : No
Forced                                   : No

Text #21
ID                                       : 23
Format                                   : UTF-8
Codec ID                                 : S_TEXT/UTF8
Codec ID/Info                            : UTF-8 Plain Text
Duration                                 : 56 min 52 s
Bit rate                                 : 57 b/s
Frame rate                               : 0.200 FPS
Count of elements                        : 681
Stream size                              : 24.0 KiB (0%)
Language                                 : Slovak (SK)
Default                                  : No
Forced                                   : No

Text #22
ID                                       : 24
Format                                   : UTF-8
Codec ID                                 : S_TEXT/UTF8
Codec ID/Info                            : UTF-8 Plain Text
Duration                                 : 57 min 7 s
Bit rate                                 : 52 b/s
Frame rate                               : 0.183 FPS
Count of elements                        : 626
Stream size                              : 22.1 KiB (0%)
Language                                 : Slovenian (SI)
Default                                  : No
Forced                                   : No

Text #23
ID                                       : 25
Format                                   : UTF-8
Codec ID                                 : S_TEXT/UTF8
Codec ID/Info                            : UTF-8 Plain Text
Duration                                 : 57 min 7 s
Bit rate                                 : 53 b/s
Frame rate                               : 0.195 FPS
Count of elements                        : 670
Stream size                              : 22.4 KiB (0%)
Language                                 : Serbian-Latn-RS
Default                                  : No
Forced                                   : No

Text #24
ID                                       : 26
Format                                   : UTF-8
Codec ID                                 : S_TEXT/UTF8
Codec ID/Info                            : UTF-8 Plain Text
Duration                                 : 56 min 52 s
Bit rate                                 : 55 b/s
Frame rate                               : 0.141 FPS
Count of elements                        : 482
Stream size                              : 23.1 KiB (0%)
Language                                 : Swedish (SE)
Default                                  : No
Forced                                   : No

Menu
00:00:00.000                             : en:Chapter 1
00:54:35.025                             : en:Credits



Download
File Container: MKV
Video/Audio Codec: H264 (HIGH) EAC3
Video Resolution: 1280x640

1 Response to "[RR/NF/CU] The Sympathizer S01E05 All for One 720p AMZN WEB-DL DDP5 1 H 264-NTb (1.8GB)"
05/13/24
04:42:31
ReadyPlayerOne

Thank you!

Please Login to post a comment.
If you don't have any account, please Register.
  • Subscribe my Feeds
  • Facebook
Encoding Queue:  x264  x265

Latest Episodes

Popular Movies and TV Shows

  • Beacon 23
  • The Nevermets
  • The Young Offenders
  • WWE King and Queen of the Ring
  • Gaga Chromatica Ball
  • Killing Crabs
  • Rebus
  • WWE Smackdown!
  • FBI: Most Wanted
  • Atlas
  • Knox Goes Away
  • The Beach Boys
  • Civil War
  • The Rookie
  • South Park
  • Doctor Who
  • 5lbs of Pressure
  • Furiosa: A Mad Max Saga
  • WWE NXT
  • Star Trek: Discovery
  • Survivor
  • The Fall Guy
  • South Park: The End of Obesity
  • Half Baked: Totally High
  • The Daily Show

Recent Comments

  • Wrapt: Hahahaha yeah right make a liar out of me but I was referring to comments made about a movie or an e...
  • Wrapt: Comments are not always appearing in the Recent Comments list after submitting a comment any reason ...
  • waanaabe:

    warning: speaks German Swedish and French for those without English subs...

  • spiker1961:

    The audio on this is a commentary track, not the actual film audio.

  • spiker1961:

    The audio on this is a commentary track, not the film audio.

  • DuranDuran: The MS PAT show - - Does anyone have BOTH the MS PAT show (SEASON 4) & (SEASON 3) that just cam...
  • newuser:

    need english subtitles

  • Demonz:

    WTH is this

    NO season info and parts 1-13

  • meyat74:

    please add if possible new episodes 5-6

  • DuranDuran: THE MS PAT show = Does anyone have BOTH the MS PAT show (SEASON 3)-and- (SEASON 4) that just came ou...
  • big_ralphie: Just sitting down to watch and, yes there are subtitles...in ITALIAN ONLY. ENGLISH subs might be hel...
  • Geependo:

    All links are dead

  • OldMovies:

    Has Czech subtitles but not English. Need forced English for the foreign language parts.

  • PROFessorMorrynarty: Would it be possible to upload 'Lego masters Australia' Series 6 Episode 6 Please? It's the only one...

Archives