Sign Up   |   Sign In  
Beacon 23The NevermetsThe Young OffendersGaga Chromatica BallKilling CrabsWWE King and Queen of the RingRebusWWE Smackdown!AtlasFBI: Most WantedThe Beach BoysKnox Goes AwayCivil WarThe RookieSouth ParkDoctor Who5lbs of PressureFuriosa: A Mad Max SagaWWE NXTStar Trek: DiscoverySurvivorThe Fall GuySouth Park: The End of ObesityHalf Baked: Totally HighThe Daily Show

Announcements

05/15

2024

1

Comments

The Good Doctor S07E09 Unconditional 720p AMZN WEB-DL DDP5 1 H 264-FLUX
[RR/NF/CU]
Size: 1GB mkv H264 (HIGH) / EAC3  HD  1280x720

The Good Doctor
File Information
[img]http://lookpic.com/cdn/i2/t/0515202406512454-1.jpg[/img]
[img]http://lookpic.com/cdn/i2/t/0515202406512454-2.jpg[/img]
[img]http://lookpic.com/cdn/i2/t/0515202406512454-3.jpg[/img]

General
Unique ID                                : 21196742946315065946728226849219342284 (0xFF2581D40FDF70122CACFF808C6EFCC)
Complete name                            : The Good Doctor S07E09 Unconditional 720p AMZN WEB-DL DDP5 1 H 264-FLUX.mkv
Format                                   : Matroska
Format version                           : Version 4
File size                                : 1.02 GiB
Duration                                 : 43 min 10 s
Overall bit rate                         : 3 376 kb/s
Frame rate                               : 23.976 FPS
Writing application                      : mkvmerge v83.0 ('Circle Of Friends') 64-bit
Writing library                          : libebml v1.4.5 + libmatroska v1.7.1

Video
ID                                       : 1
Format                                   : AVC
Format/Info                              : Advanced Video Codec
Format profile                           : [email protected]
Format settings                          : CABAC / 4 Ref Frames
Format settings, CABAC                   : Yes
Format settings, Reference frames        : 4 frames
Codec ID                                 : V_MPEG4/ISO/AVC
Duration                                 : 43 min 10 s
Bit rate mode                            : Constant
Bit rate                                 : 2 734 kb/s
Nominal bit rate                         : 6 000 kb/s
Width                                    : 1 280 pixels
Height                                   : 720 pixels
Display aspect ratio                     : 16:9
Frame rate mode                          : Constant
Frame rate                               : 23.976 (24000/1001) FPS
Color space                              : YUV
Chroma subsampling                       : 4:2:0
Bit depth                                : 8 bits
Scan type                                : Progressive
Bits/(Pixel*Frame)                       : 0.124
Stream size                              : 844 MiB (81%)
Language                                 : English (US)
Default                                  : Yes
Forced                                   : No
Color range                              : Limited
Color primaries                          : BT.709
Transfer characteristics                 : BT.709
Matrix coefficients                      : BT.709

Audio
ID                                       : 2
Format                                   : E-AC-3
Format/Info                              : Enhanced AC-3
Commercial name                          : Dolby Digital Plus
Codec ID                                 : A_EAC3
Duration                                 : 43 min 10 s
Bit rate mode                            : Constant
Bit rate                                 : 640 kb/s
Channel(s)                               : 6 channels
Channel layout                           : L R C LFE Ls Rs
Sampling rate                            : 48.0 kHz
Frame rate                               : 31.250 FPS (1536 SPF)
Compression mode                         : Lossy
Stream size                              : 198 MiB (19%)
Language                                 : English
Service kind                             : Complete Main
Default                                  : Yes
Forced                                   : No

Text #1
ID                                       : 3
Format                                   : UTF-8
Codec ID                                 : S_TEXT/UTF8
Codec ID/Info                            : UTF-8 Plain Text
Duration                                 : 42 min 23 s
Bit rate                                 : 82 b/s
Frame rate                               : 0.314 FPS
Count of elements                        : 798
Stream size                              : 25.6 KiB (0%)
Language                                 : English (US)
Default                                  : No
Forced                                   : No

Text #2
ID                                       : 4
Format                                   : UTF-8
Codec ID                                 : S_TEXT/UTF8
Codec ID/Info                            : UTF-8 Plain Text
Duration                                 : 42 min 31 s
Bit rate                                 : 84 b/s
Frame rate                               : 0.324 FPS
Count of elements                        : 828
Stream size                              : 26.4 KiB (0%)
Title                                    : SDH
Language                                 : English (US)
Default                                  : No
Forced                                   : No

Menu
00:00:00.000                             : en:Scene 1
00:42:29.000                             : en:End Credits



Download
File Container: MKV
Video/Audio Codec: H264 (HIGH) EAC3
Video Resolution: 1280x720

1 Response to "[RR/NF/CU] The Good Doctor S07E09 Unconditional 720p AMZN WEB-DL DDP5 1 H 264-FLUX (1GB)"
05/15/24
07:27:28
ReadyPlayerOne

Thank You

Please Login to post a comment.
If you don't have any account, please Register.
  • Subscribe my Feeds
  • Facebook
Encoding Queue:  x264  x265

Latest Episodes

Popular Movies and TV Shows

  • Beacon 23
  • The Nevermets
  • The Young Offenders
  • Gaga Chromatica Ball
  • Killing Crabs
  • WWE King and Queen of the Ring
  • Rebus
  • WWE Smackdown!
  • Atlas
  • FBI: Most Wanted
  • The Beach Boys
  • Knox Goes Away
  • Civil War
  • The Rookie
  • South Park
  • Doctor Who
  • 5lbs of Pressure
  • Furiosa: A Mad Max Saga
  • WWE NXT
  • Star Trek: Discovery
  • Survivor
  • The Fall Guy
  • South Park: The End of Obesity
  • Half Baked: Totally High
  • The Daily Show

Recent Comments

  • Wrapt: Hahahaha yeah right make a liar out of me but I was referring to comments made about a movie or an e...
  • Wrapt: Comments are not always appearing in the Recent Comments list after submitting a comment any reason ...
  • waanaabe:

    warning: speaks German Swedish and French for those without English subs...

  • spiker1961:

    The audio on this is a commentary track, not the actual film audio.

  • spiker1961:

    The audio on this is a commentary track, not the film audio.

  • DuranDuran: The MS PAT show - - Does anyone have BOTH the MS PAT show (SEASON 4) & (SEASON 3) that just cam...
  • newuser:

    need english subtitles

  • Demonz:

    WTH is this

    NO season info and parts 1-13

  • meyat74:

    please add if possible new episodes 5-6

  • DuranDuran: THE MS PAT show = Does anyone have BOTH the MS PAT show (SEASON 3)-and- (SEASON 4) that just came ou...
  • big_ralphie: Just sitting down to watch and, yes there are subtitles...in ITALIAN ONLY. ENGLISH subs might be hel...
  • Geependo:

    All links are dead

  • OldMovies:

    Has Czech subtitles but not English. Need forced English for the foreign language parts.

  • PROFessorMorrynarty: Would it be possible to upload 'Lego masters Australia' Series 6 Episode 6 Please? It's the only one...

Archives