Sign Up   |   Sign In  
Beacon 23Gaga Chromatica BallLooney Tunes: Rabbits RunThe Young OffendersSouth Park: The End of ObesityAt the End of the NightRebusThe NevermetsAtlasDoctor WhoLondon Has FallenKilling CrabsCivil WarThe RookieSouth ParkWWE Smackdown!Furiosa: A Mad Max Saga5lbs of PressureWWE NXTStar Trek: DiscoverySurvivorThe Fall GuyHalf Baked: Totally HighWho's Yer Father?The Daily Show

Announcements

05/13

2024

1

Comments

The Equalizer 2021 S04E09 The Big Take 1080p AMZN WEB-DL DDP5 1 H 264-FLUX
[RR/NF]
Size: 2.7GB mkv H264 (HIGH) / EAC3  HD  1920x1080

The Equalizer
File Information
[img]http://lookpic.com/cdn/i2/t/0513202406335681-1.jpg[/img]
[img]http://lookpic.com/cdn/i2/t/0513202406335681-2.jpg[/img]
[img]http://lookpic.com/cdn/i2/t/0513202406335681-3.jpg[/img]

General
Unique ID                                : 169971900568634385225942035443376589397 (0x7FDF65B583ED4DC1EE0A7A6307CE0A55)
Complete name                            : The Equalizer 2021 S04E09 The Big Take 1080p AMZN WEB-DL DDP5 1 H 264-FLUX.mkv
Format                                   : Matroska
Format version                           : Version 4
File size                                : 2.66 GiB
Duration                                 : 43 min 23 s
Overall bit rate                         : 8 766 kb/s
Frame rate                               : 23.976 FPS
Writing application                      : mkvmerge v83.0 ('Circle Of Friends') 64-bit
Writing library                          : libebml v1.4.5 + libmatroska v1.7.1

Video
ID                                       : 1
Format                                   : AVC
Format/Info                              : Advanced Video Codec
Format profile                           : High@L4
Format settings                          : CABAC / 4 Ref Frames
Format settings, CABAC                   : Yes
Format settings, Reference frames        : 4 frames
Codec ID                                 : V_MPEG4/ISO/AVC
Duration                                 : 43 min 23 s
Bit rate mode                            : Constant
Bit rate                                 : 8 124 kb/s
Nominal bit rate                         : 10 000 kb/s
Width                                    : 1 920 pixels
Height                                   : 1 080 pixels
Display aspect ratio                     : 16:9
Frame rate mode                          : Constant
Frame rate                               : 23.976 (24000/1001) FPS
Color space                              : YUV
Chroma subsampling                       : 4:2:0
Bit depth                                : 8 bits
Scan type                                : Progressive
Bits/(Pixel*Frame)                       : 0.163
Stream size                              : 2.46 GiB (93%)
Language                                 : English (US)
Default                                  : Yes
Forced                                   : No
Color range                              : Limited
Color primaries                          : BT.709
Transfer characteristics                 : BT.709
Matrix coefficients                      : BT.709

Audio
ID                                       : 2
Format                                   : E-AC-3
Format/Info                              : Enhanced AC-3
Commercial name                          : Dolby Digital Plus
Codec ID                                 : A_EAC3
Duration                                 : 43 min 23 s
Bit rate mode                            : Constant
Bit rate                                 : 640 kb/s
Channel(s)                               : 6 channels
Channel layout                           : L R C LFE Ls Rs
Sampling rate                            : 48.0 kHz
Frame rate                               : 31.250 FPS (1536 SPF)
Compression mode                         : Lossy
Stream size                              : 199 MiB (7%)
Language                                 : English (US)
Service kind                             : Complete Main
Default                                  : Yes
Forced                                   : No

Text #1
ID                                       : 3
Format                                   : UTF-8
Codec ID                                 : S_TEXT/UTF8
Codec ID/Info                            : UTF-8 Plain Text
Duration                                 : 43 min 7 s
Bit rate                                 : 82 b/s
Frame rate                               : 0.337 FPS
Count of elements                        : 871
Stream size                              : 26.2 KiB (0%)
Language                                 : English (US)
Default                                  : No
Forced                                   : No

Text #2
ID                                       : 4
Format                                   : UTF-8
Codec ID                                 : S_TEXT/UTF8
Codec ID/Info                            : UTF-8 Plain Text
Duration                                 : 43 min 7 s
Bit rate                                 : 87 b/s
Frame rate                               : 0.361 FPS
Count of elements                        : 934
Stream size                              : 27.6 KiB (0%)
Title                                    : SDH
Language                                 : English (US)
Default                                  : No
Forced                                   : No

Menu
00:00:00.000                             : en:Scene 1
00:42:53.000                             : en:End Credits



Download
File Container: MKV
Video/Audio Codec: H264 (HIGH) EAC3
Video Resolution: 1920x1080

1 Response to "[RR/NF] The Equalizer 2021 S04E09 The Big Take 1080p AMZN WEB-DL DDP5 1 H 264-FLUX (2.7GB)"
05/13/24
06:42:38
ReadyPlayerOne

Thank You

Please Login to post a comment.
If you don't have any account, please Register.
  • Subscribe my Feeds
  • Facebook
Encoding Queue:  x264  x265

Latest Episodes

Popular Movies and TV Shows

  • Beacon 23
  • Gaga Chromatica Ball
  • Looney Tunes: Rabbits Run
  • The Young Offenders
  • South Park: The End of Obesity
  • At the End of the Night
  • Rebus
  • The Nevermets
  • Atlas
  • Doctor Who
  • London Has Fallen
  • Killing Crabs
  • Civil War
  • The Rookie
  • South Park
  • WWE Smackdown!
  • Furiosa: A Mad Max Saga
  • 5lbs of Pressure
  • WWE NXT
  • Star Trek: Discovery
  • Survivor
  • The Fall Guy
  • Half Baked: Totally High
  • Who's Yer Father?
  • The Daily Show

Recent Comments

  • Wrapt: Hahahaha yeah right make a liar out of me but I was referring to comments made about a movie or an e...
  • Wrapt: Comments are not always appearing in the Recent Comments list after submitting a comment any reason ...
  • waanaabe:

    warning: speaks German Swedish and French for those without English subs...

  • spiker1961:

    The audio on this is a commentary track, not the actual film audio.

  • spiker1961:

    The audio on this is a commentary track, not the film audio.

  • DuranDuran: The MS PAT show - - Does anyone have BOTH the MS PAT show (SEASON 4) & (SEASON 3) that just cam...
  • newuser:

    need english subtitles

  • Demonz:

    WTH is this

    NO season info and parts 1-13

  • meyat74:

    please add if possible new episodes 5-6

  • DuranDuran: THE MS PAT show = Does anyone have BOTH the MS PAT show (SEASON 3)-and- (SEASON 4) that just came ou...
  • big_ralphie: Just sitting down to watch and, yes there are subtitles...in ITALIAN ONLY. ENGLISH subs might be hel...
  • Geependo:

    All links are dead

  • OldMovies:

    Has Czech subtitles but not English. Need forced English for the foreign language parts.

  • PROFessorMorrynarty: Would it be possible to upload 'Lego masters Australia' Series 6 Episode 6 Please? It's the only one...

Archives