Sign Up   |   Sign In  
Star Trek: DiscoveryChicago FireChicago P.D.ReunionLadies and Gentlemen: The Rolling StonesBreaking PointThe Bold and the BeautifulEvilChicago MedBoy Kills WorldAfflictionMad GodFBIThe RookieFBI: Most WantedThe Fall GuyRachel Feinstein: Big GuyPeter Gabriel's Secret WorldDark MatterWill TrentFBI: InternationalMoonedThe Manchurian CandidateVisionsThe Daily Show

Announcements

05/10

2024

1

Comments

Star Trek Discovery S05E07 Erigah 1080p PMTP WEB-DL DDP5 1 DoVi HEVC-NTb
[RR/NF]
Size: 2.1GB mkv HEVC (MAIN 10) / EAC3  HD  1920x1080

Star Trek: Discovery
File Information
[img]http://lookpic.com/cdn/i2/t/0510202401534180-1.jpg[/img]
[img]http://lookpic.com/cdn/i2/t/0510202401534180-2.jpg[/img]
[img]http://lookpic.com/cdn/i2/t/0510202401534180-3.jpg[/img]

General
Unique ID                                : 91320811634641295906660908448328431846 (0x44B3BFA21B1E3E616F079DACCEF3B8E6)
Complete name                            : Star Trek Discovery S05E07 Erigah 1080p PMTP WEB-DL DDP5 1 DoVi HEVC-NTb.mkv
Format                                   : Matroska
Format version                           : Version 4
File size                                : 2.05 GiB
Duration                                 : 54 min 57 s
Overall bit rate                         : 5 346 kb/s
Frame rate                               : 23.976 FPS
Writing application                      : mkvmerge v81.0 ('Milliontown') 64-bit
Writing library                          : libebml v1.4.4 + libmatroska v1.7.1

Video
ID                                       : 1
Format                                   : HEVC
Format/Info                              : High Efficiency Video Coding
Format profile                           : Main 10@L4@Main
HDR format                               : Dolby Vision, Version 1.0, dvhe.05.03, BL+RPU
Codec ID                                 : V_MPEGH/ISO/HEVC
Duration                                 : 54 min 57 s
Bit rate                                 : 4 704 kb/s
Width                                    : 1 920 pixels
Height                                   : 1 080 pixels
Display aspect ratio                     : 16:9
Frame rate mode                          : Constant
Frame rate                               : 23.976 (24000/1001) FPS
Color space                              : YUV
Chroma subsampling                       : 4:2:0 (Type 0)
Bit depth                                : 10 bits
Bits/(Pixel*Frame)                       : 0.095
Stream size                              : 1.81 GiB (88%)
Default                                  : Yes
Forced                                   : No
Color range                              : Full
Color primaries                          : BT.2020
Transfer characteristics                 : PQ
Matrix coefficients                      : BT.2020 non-constant

Audio
ID                                       : 2
Format                                   : E-AC-3
Format/Info                              : Enhanced AC-3
Commercial name                          : Dolby Digital Plus
Codec ID                                 : A_EAC3
Duration                                 : 54 min 57 s
Bit rate mode                            : Constant
Bit rate                                 : 640 kb/s
Channel(s)                               : 6 channels
Channel layout                           : L R C LFE Ls Rs
Sampling rate                            : 48.0 kHz
Frame rate                               : 31.250 FPS (1536 SPF)
Compression mode                         : Lossy
Stream size                              : 252 MiB (12%)
Language                                 : English
Service kind                             : Complete Main
Default                                  : Yes
Forced                                   : No

Text #1
ID                                       : 3
Format                                   : UTF-8
Codec ID                                 : S_TEXT/UTF8
Codec ID/Info                            : UTF-8 Plain Text
Duration                                 : 53 min 34 s
Bit rate                                 : 84 b/s
Frame rate                               : 0.321 FPS
Count of elements                        : 1031
Stream size                              : 33.4 KiB (0%)
Language                                 : English (US)
Default                                  : No
Forced                                   : No

Text #2
ID                                       : 4
Format                                   : UTF-8
Codec ID                                 : S_TEXT/UTF8
Codec ID/Info                            : UTF-8 Plain Text
Duration                                 : 53 min 58 s
Bit rate                                 : 88 b/s
Frame rate                               : 0.337 FPS
Count of elements                        : 1091
Stream size                              : 35.1 KiB (0%)
Title                                    : SDH
Language                                 : English (US)
Default                                  : No
Forced                                   : No

Menu
00:00:00.000                             : Chapter 1
00:00:27.000                             : Recap
00:01:55.000                             : Chapter 2
00:09:03.000                             : Intro
00:23:16.000                             : Chapter 3
00:39:40.000                             : Chapter 4
00:46:38.000                             : Chapter 5
00:53:51.000                             : Credits



Download
File Container: MKV
Video/Audio Codec: HEVC (MAIN 10) EAC3
Video Resolution: 1920x1080

1 Response to "[RR/NF] Star Trek Discovery S05E07 Erigah 1080p PMTP WEB-DL DDP5 1 DoVi HEVC-NTb (2.1GB)"
05/10/24
02:24:32
ReadyPlayerOne

Thank You

Please Login to post a comment.
If you don't have any account, please Register.
  • Subscribe my Feeds
  • Facebook
Encoding Queue:  x264  x265

Latest Episodes

Popular Movies and TV Shows

  • Star Trek: Discovery
  • Chicago Fire
  • Chicago P.D.
  • Reunion
  • Ladies and Gentlemen: The Rolling Stones
  • Breaking Point
  • The Bold and the Beautiful
  • Evil
  • Chicago Med
  • Boy Kills World
  • Affliction
  • Mad God
  • FBI
  • The Rookie
  • FBI: Most Wanted
  • The Fall Guy
  • Rachel Feinstein: Big Guy
  • Peter Gabriel's Secret World
  • Dark Matter
  • Will Trent
  • FBI: International
  • Mooned
  • The Manchurian Candidate
  • Visions
  • The Daily Show

Recent Comments

  • big_ralphie: Just sitting down to watch and, yes there are subtitles...in ITALIAN ONLY. ENGLISH subs might be hel...
  • Geependo:

    All links are dead

  • OldMovies:

    Has Czech subtitles but not English. Need forced English for the foreign language parts.

  • PROFessorMorrynarty: Would it be possible to upload 'Lego masters Australia' Series 6 Episode 6 Please? It's the only one...
  • mentalityx:

    Thx mate.

  • Bud: Is the search engine down for everyone, or just me? It just says 'You're forbidden!' whenever I lo...
  • 23d1:

    not episode 4 it is episode 3

  • 23d1:

    not episode 4 it is episode 3

  • 23d1:

    not episode 4 it is episode 3

  • 23d1:

    not episode 4 it is episode 3

Archives