Sign Up   |   Sign In  
Dark MatterCSI: VegasUnder the BridgeMahal ko ang mahal moHimasSerbidorasWWE NXTThe Big Door PrizeLootYour Mother's SonThis Beautiful FantasticNot Another Church MovieThe Bold and the BeautifulThe SimpsonsThe VeilTarotThe First OmenCivil WarThe RookieWWE Smackdown!Abbott ElementaryBack to BlackKung Fu Panda 4Furiosa: A Mad Max SagaThe Daily Show

Announcements

05/13

2024

1

Comments

Krapopolis S01E22 The Tyrannis Crown Affair 1080p HULU WEB-DL DDP5 1 H 264-NTb
[RR/NF/CU]
Size: 516MB mkv H264 (HIGH) / EAC3  HD  1920x1080

Krapopolis
File Information
[img]http://lookpic.com/cdn/i2/t/0513202418435648-1.jpg[/img]
[img]http://lookpic.com/cdn/i2/t/0513202418435648-2.jpg[/img]
[img]http://lookpic.com/cdn/i2/t/0513202418435648-3.jpg[/img]

General
Unique ID                                : 284702365153484385631908895251320076212 (0xD62FAE57E58AF99E3B391EA41314F7B4)
Complete name                            : Krapopolis S01E22 The Tyrannis Crown Affair 1080p HULU WEB-DL DDP5 1 H 264-NTb.mkv
Format                                   : Matroska
Format version                           : Version 4
File size                                : 516 MiB
Duration                                 : 21 min 28 s
Overall bit rate                         : 3 361 kb/s
Frame rate                               : 23.976 FPS
Writing application                      : mkvmerge v80.0 ('Roundabout') 64-bit
Writing library                          : libebml v1.4.4 + libmatroska v1.7.1

Video
ID                                       : 1
Format                                   : AVC
Format/Info                              : Advanced Video Codec
Format profile                           : High@L4
Format settings                          : CABAC / 4 Ref Frames
Format settings, CABAC                   : Yes
Format settings, Reference frames        : 4 frames
Codec ID                                 : V_MPEG4/ISO/AVC
Duration                                 : 21 min 28 s
Bit rate                                 : 3 102 kb/s
Width                                    : 1 920 pixels
Height                                   : 1 080 pixels
Display aspect ratio                     : 16:9
Frame rate mode                          : Constant
Frame rate                               : 23.976 (24000/1001) FPS
Color space                              : YUV
Chroma subsampling                       : 4:2:0
Bit depth                                : 8 bits
Scan type                                : Progressive
Bits/(Pixel*Frame)                       : 0.062
Stream size                              : 476 MiB (92%)
Default                                  : Yes
Forced                                   : No

Audio
ID                                       : 2
Format                                   : E-AC-3
Format/Info                              : Enhanced AC-3
Commercial name                          : Dolby Digital Plus
Codec ID                                 : A_EAC3
Duration                                 : 21 min 28 s
Bit rate mode                            : Constant
Bit rate                                 : 256 kb/s
Channel(s)                               : 6 channels
Channel layout                           : L R C LFE Ls Rs
Sampling rate                            : 48.0 kHz
Frame rate                               : 31.250 FPS (1536 SPF)
Compression mode                         : Lossy
Stream size                              : 39.3 MiB (8%)
Language                                 : English
Service kind                             : Complete Main
Default                                  : Yes
Forced                                   : No

Text #1
ID                                       : 3
Format                                   : UTF-8
Codec ID                                 : S_TEXT/UTF8
Codec ID/Info                            : UTF-8 Plain Text
Duration                                 : 21 min 14 s
Bit rate                                 : 107 b/s
Frame rate                               : 0.443 FPS
Count of elements                        : 565
Stream size                              : 16.7 KiB (0%)
Language                                 : English
Default                                  : No
Forced                                   : No

Text #2
ID                                       : 4
Format                                   : UTF-8
Codec ID                                 : S_TEXT/UTF8
Codec ID/Info                            : UTF-8 Plain Text
Duration                                 : 21 min 25 s
Bit rate                                 : 113 b/s
Frame rate                               : 0.492 FPS
Count of elements                        : 633
Stream size                              : 17.8 KiB (0%)
Title                                    : SDH
Language                                 : English
Default                                  : No
Forced                                   : No

Menu
00:00:00.000                             : en:Chapter 1
00:08:14.000                             : en:Chapter 2
00:15:44.009                             : en:Chapter 3
00:20:27.001                             : en:Chapter 4



Download
File Container: MKV
Video/Audio Codec: H264 (HIGH) EAC3
Video Resolution: 1920x1080

1 Response to "[RR/NF/CU] Krapopolis S01E22 The Tyrannis Crown Affair 1080p HULU WEB-DL DDP5 1 H 264-NTb (516MB)"
05/13/24
19:35:37
ReadyPlayerOne

Thank You

Please Login to post a comment.
If you don't have any account, please Register.
  • Subscribe my Feeds
  • Facebook
Encoding Queue:  x264  x265

Latest Episodes

Popular Movies and TV Shows

  • Dark Matter
  • CSI: Vegas
  • Under the Bridge
  • Mahal ko ang mahal mo
  • Himas
  • Serbidoras
  • WWE NXT
  • The Big Door Prize
  • Loot
  • Your Mother's Son
  • This Beautiful Fantastic
  • Not Another Church Movie
  • The Bold and the Beautiful
  • The Simpsons
  • The Veil
  • Tarot
  • The First Omen
  • Civil War
  • The Rookie
  • WWE Smackdown!
  • Abbott Elementary
  • Back to Black
  • Kung Fu Panda 4
  • Furiosa: A Mad Max Saga
  • The Daily Show

Recent Comments

  • waanaabe: I hope someone follows through with the rest! also, did not check every post but hoping future ones ...
  • Demonz:

    Holy popups ClickNupload

  • rambaldi70:

    this release sort cut! 1h33m12 !
    imdb - 1h 54m

  • rambaldi70: This release the first bad source 1h33m12 - stop the play this release sort cut! 1h33m12 ! imdb - 1h...
  • rambaldi70:

    this release sort cut! 1h33m12 !
    imdb - 1h 54m

  • dilliboy: Will we ever see these RMTeam releases ever again? I hope they're not lost to the digital graveyard ...
  • kang:

    NitroFlare's link is missing...

  • kang:

    NitroFlare's link is missing...

  • tchamast:

    @Wrapt

    I've seen that too, don't know why.

  • Rafi85: Hi thx for the 14th season. Is it possible to reupload some episodes plz they were removed. These ar...
  • KubrickFan:

    Any possibility of a fresh link for this?

  • GubeShitemon: This is a different movie to the artwork version. Not the Dylan McDermott film but the Ben Affleck f...
  • drorsabi1:

    @admin
    Please add "My Adventures With Superman Season 2 "

  • Wrapt: Hahahaha yeah right make a liar out of me but I was referring to comments made about a movie or an e...
  • Wrapt: Comments are not always appearing in the Recent Comments list after submitting a comment any reason ...
  • waanaabe:

    warning: speaks German Swedish and French for those without English subs...

Archives