Sign Up   |   Sign In  
Dark MatterThe Big Door PrizeCSI: VegasHimasNot Another Church MovieMahal ko ang mahal moWWE NXTLootAcapulcoTarotThis Beautiful FantasticAtlasThe Bold and the BeautifulThe SimpsonsThe VeilThe First OmenCivil WarFuriosa: A Mad Max SagaThe RookieWWE Smackdown!Abbott ElementaryBack to BlackKung Fu Panda 4Red RoomsThe Daily Show

Announcements

05/13

2024

1

Comments

Grimsburg S01E13 The Danish Dilemma 1080p HULU WEB-DL DDP5 1 H 264-NTb
[RR/NF/CU]
Size: 390MB mkv H264 (HIGH) / EAC3  HD  1920x1080

Grimsburg
File Information
[img]http://lookpic.com/cdn/i2/t/0513202418435192-1.jpg[/img]
[img]http://lookpic.com/cdn/i2/t/0513202418435192-2.jpg[/img]
[img]http://lookpic.com/cdn/i2/t/0513202418435192-3.jpg[/img]

General
Unique ID                                : 11475014994857513896029639671437843543 (0x8A201EB75D56A82D854B3770CEFDC57)
Complete name                            : Grimsburg S01E13 The Danish Dilemma 1080p HULU WEB-DL DDP5 1 H 264-NTb.mkv
Format                                   : Matroska
Format version                           : Version 4
File size                                : 391 MiB
Duration                                 : 21 min 39 s
Overall bit rate                         : 2 523 kb/s
Frame rate                               : 23.976 FPS
Writing application                      : mkvmerge v80.0 ('Roundabout') 64-bit
Writing library                          : libebml v1.4.4 + libmatroska v1.7.1

Video
ID                                       : 1
Format                                   : AVC
Format/Info                              : Advanced Video Codec
Format profile                           : High@L4
Format settings                          : CABAC / 4 Ref Frames
Format settings, CABAC                   : Yes
Format settings, Reference frames        : 4 frames
Codec ID                                 : V_MPEG4/ISO/AVC
Duration                                 : 21 min 39 s
Bit rate                                 : 2 264 kb/s
Width                                    : 1 920 pixels
Height                                   : 1 080 pixels
Display aspect ratio                     : 16:9
Frame rate mode                          : Constant
Frame rate                               : 23.976 (24000/1001) FPS
Color space                              : YUV
Chroma subsampling                       : 4:2:0
Bit depth                                : 8 bits
Scan type                                : Progressive
Bits/(Pixel*Frame)                       : 0.046
Stream size                              : 351 MiB (90%)
Default                                  : Yes
Forced                                   : No

Audio
ID                                       : 2
Format                                   : E-AC-3
Format/Info                              : Enhanced AC-3
Commercial name                          : Dolby Digital Plus
Codec ID                                 : A_EAC3
Duration                                 : 21 min 39 s
Bit rate mode                            : Constant
Bit rate                                 : 256 kb/s
Channel(s)                               : 6 channels
Channel layout                           : L R C LFE Ls Rs
Sampling rate                            : 48.0 kHz
Frame rate                               : 31.250 FPS (1536 SPF)
Compression mode                         : Lossy
Stream size                              : 39.7 MiB (10%)
Language                                 : English
Service kind                             : Complete Main
Default                                  : Yes
Forced                                   : No

Text #1
ID                                       : 3
Format                                   : UTF-8
Codec ID                                 : S_TEXT/UTF8
Codec ID/Info                            : UTF-8 Plain Text
Duration                                 : 21 min 31 s
Bit rate                                 : 99 b/s
Frame rate                               : 0.391 FPS
Count of elements                        : 505
Stream size                              : 15.7 KiB (0%)
Language                                 : English
Default                                  : No
Forced                                   : No

Text #2
ID                                       : 4
Format                                   : UTF-8
Codec ID                                 : S_TEXT/UTF8
Codec ID/Info                            : UTF-8 Plain Text
Duration                                 : 21 min 35 s
Bit rate                                 : 109 b/s
Frame rate                               : 0.457 FPS
Count of elements                        : 592
Stream size                              : 17.3 KiB (0%)
Title                                    : SDH
Language                                 : English
Default                                  : No
Forced                                   : No

Menu
00:00:00.000                             : en:Chapter 1
00:07:15.020                             : en:Chapter 2
00:12:51.013                             : en:Chapter 3
00:20:51.004                             : en:Chapter 4



Download
File Container: MKV
Video/Audio Codec: H264 (HIGH) EAC3
Video Resolution: 1920x1080

1 Response to "[RR/NF/CU] Grimsburg S01E13 The Danish Dilemma 1080p HULU WEB-DL DDP5 1 H 264-NTb (390MB)"
05/13/24
19:37:10
ReadyPlayerOne

Thank You

Please Login to post a comment.
If you don't have any account, please Register.
  • Subscribe my Feeds
  • Facebook
Encoding Queue:  x264  x265

Latest Episodes

Popular Movies and TV Shows

  • Dark Matter
  • The Big Door Prize
  • CSI: Vegas
  • Himas
  • Not Another Church Movie
  • Mahal ko ang mahal mo
  • WWE NXT
  • Loot
  • Acapulco
  • Tarot
  • This Beautiful Fantastic
  • Atlas
  • The Bold and the Beautiful
  • The Simpsons
  • The Veil
  • The First Omen
  • Civil War
  • Furiosa: A Mad Max Saga
  • The Rookie
  • WWE Smackdown!
  • Abbott Elementary
  • Back to Black
  • Kung Fu Panda 4
  • Red Rooms
  • The Daily Show

Recent Comments

  • waanaabe: I hope someone follows through with the rest! also, did not check every post but hoping future ones ...
  • Demonz:

    Holy popups ClickNupload

  • rambaldi70:

    this release sort cut! 1h33m12 !
    imdb - 1h 54m

  • rambaldi70: This release the first bad source 1h33m12 - stop the play this release sort cut! 1h33m12 ! imdb - 1h...
  • rambaldi70:

    this release sort cut! 1h33m12 !
    imdb - 1h 54m

  • dilliboy: Will we ever see these RMTeam releases ever again? I hope they're not lost to the digital graveyard ...
  • kang:

    NitroFlare's link is missing...

  • kang:

    NitroFlare's link is missing...

  • tchamast:

    @Wrapt

    I've seen that too, don't know why.

  • Rafi85: Hi thx for the 14th season. Is it possible to reupload some episodes plz they were removed. These ar...
  • KubrickFan:

    Any possibility of a fresh link for this?

  • GubeShitemon: This is a different movie to the artwork version. Not the Dylan McDermott film but the Ben Affleck f...
  • drorsabi1:

    @admin
    Please add "My Adventures With Superman Season 2 "

  • Wrapt: Hahahaha yeah right make a liar out of me but I was referring to comments made about a movie or an e...
  • Wrapt: Comments are not always appearing in the Recent Comments list after submitting a comment any reason ...
  • waanaabe:

    warning: speaks German Swedish and French for those without English subs...

Archives