Sign Up   |   Sign In  
Star Trek: DiscoveryChicago FireChicago P.D.Carol Doda Topless at the CondorKing of TexasMan on the TrainThe Bold and the BeautifulThe RookieFBI: Most WantedReunionLadies and Gentlemen: The Rolling StonesBreaking PointFBIFBI: InternationalThe ConnersThe Fall GuyBoy Kills WorldMad GodDark MatterWill TrentThe Good DoctorMoonedThe Manchurian CandidateVisionsThe Daily Show

Announcements

05/10

2024

1

Comments

Elsbeth S01E08 Artificial Genius 720p AMZN WEB-DL DDP5 1 H 264-NTb
[RR/NF/CU]
Size: 1.1GB mkv H264 (HIGH) / EAC3  HD  1280x720

Elsbeth
File Information
[img]http://lookpic.com/cdn/i2/t/0510202408163251-1.jpg[/img]
[img]http://lookpic.com/cdn/i2/t/0510202408163251-2.jpg[/img]
[img]http://lookpic.com/cdn/i2/t/0510202408163251-3.jpg[/img]

General
Unique ID                                : 61129180710679329933725066732424477075 (0x2DFD0D4D4B2473A598AA6726A2B13993)
Complete name                            : Elsbeth.S01E08.Artificial.Genius.720p.AMZN.WEB-DL.DDP5.1.H.264-NTb.mkv
Format                                   : Matroska
Format version                           : Version 4
File size                                : 1.09 GiB
Duration                                 : 42 min 50 s
Overall bit rate                         : 3 656 kb/s
Frame rate                               : 23.976 FPS
Writing application                      : mkvmerge v81.0 ('Milliontown') 64-bit
Writing library                          : libebml v1.4.4 + libmatroska v1.7.1

Video
ID                                       : 1
Format                                   : AVC
Format/Info                              : Advanced Video Codec
Format profile                           : [email protected]
Format settings                          : CABAC / 4 Ref Frames
Format settings, CABAC                   : Yes
Format settings, Reference frames        : 4 frames
Codec ID                                 : V_MPEG4/ISO/AVC
Duration                                 : 42 min 50 s
Bit rate mode                            : Constant
Bit rate                                 : 3 013 kb/s
Nominal bit rate                         : 4 000 kb/s
Width                                    : 1 280 pixels
Height                                   : 720 pixels
Display aspect ratio                     : 16:9
Frame rate mode                          : Constant
Frame rate                               : 23.976 (24000/1001) FPS
Color space                              : YUV
Chroma subsampling                       : 4:2:0
Bit depth                                : 8 bits
Scan type                                : Progressive
Bits/(Pixel*Frame)                       : 0.136
Stream size                              : 923 MiB (82%)
Default                                  : Yes
Forced                                   : No
Color range                              : Limited
Color primaries                          : BT.709
Transfer characteristics                 : BT.709
Matrix coefficients                      : BT.709

Audio
ID                                       : 2
Format                                   : E-AC-3
Format/Info                              : Enhanced AC-3
Commercial name                          : Dolby Digital Plus
Codec ID                                 : A_EAC3
Duration                                 : 42 min 50 s
Bit rate mode                            : Constant
Bit rate                                 : 640 kb/s
Channel(s)                               : 6 channels
Channel layout                           : L R C LFE Ls Rs
Sampling rate                            : 48.0 kHz
Frame rate                               : 31.250 FPS (1536 SPF)
Compression mode                         : Lossy
Stream size                              : 196 MiB (18%)
Language                                 : English (US)
Service kind                             : Complete Main
Default                                  : Yes
Forced                                   : No

Text #1
ID                                       : 3
Format                                   : UTF-8
Codec ID                                 : S_TEXT/UTF8
Codec ID/Info                            : UTF-8 Plain Text
Duration                                 : 42 min 30 s
Bit rate                                 : 101 b/s
Frame rate                               : 0.415 FPS
Count of elements                        : 1058
Stream size                              : 31.7 KiB (0%)
Language                                 : English (US)
Default                                  : No
Forced                                   : No

Text #2
ID                                       : 4
Format                                   : UTF-8
Codec ID                                 : S_TEXT/UTF8
Codec ID/Info                            : UTF-8 Plain Text
Duration                                 : 42 min 30 s
Bit rate                                 : 105 b/s
Frame rate                               : 0.425 FPS
Count of elements                        : 1085
Stream size                              : 32.7 KiB (0%)
Title                                    : SDH
Language                                 : English (US)
Default                                  : No
Forced                                   : No



Download
File Container: MKV
Video/Audio Codec: H264 (HIGH) EAC3
Video Resolution: 1280x720

1 Response to "[RR/NF/CU] Elsbeth S01E08 Artificial Genius 720p AMZN WEB-DL DDP5 1 H 264-NTb (1.1GB)"
05/10/24
08:47:50
ReadyPlayerOne

Thank You

Please Login to post a comment.
If you don't have any account, please Register.
  • Subscribe my Feeds
  • Facebook
Encoding Queue:  x264  x265

Latest Episodes

Popular Movies and TV Shows

  • Star Trek: Discovery
  • Chicago Fire
  • Chicago P.D.
  • Carol Doda Topless at the Condor
  • King of Texas
  • Man on the Train
  • The Bold and the Beautiful
  • The Rookie
  • FBI: Most Wanted
  • Reunion
  • Ladies and Gentlemen: The Rolling Stones
  • Breaking Point
  • FBI
  • FBI: International
  • The Conners
  • The Fall Guy
  • Boy Kills World
  • Mad God
  • Dark Matter
  • Will Trent
  • The Good Doctor
  • Mooned
  • The Manchurian Candidate
  • Visions
  • The Daily Show

Recent Comments

  • big_ralphie: Just sitting down to watch and, yes there are subtitles...in ITALIAN ONLY. ENGLISH subs might be hel...
  • Geependo:

    All links are dead

  • OldMovies:

    Has Czech subtitles but not English. Need forced English for the foreign language parts.

  • PROFessorMorrynarty: Would it be possible to upload 'Lego masters Australia' Series 6 Episode 6 Please? It's the only one...
  • mentalityx:

    Thx mate.

  • Bud: Is the search engine down for everyone, or just me? It just says 'You're forbidden!' whenever I lo...
  • 23d1:

    not episode 4 it is episode 3

  • 23d1:

    not episode 4 it is episode 3

  • 23d1:

    not episode 4 it is episode 3

  • 23d1:

    not episode 4 it is episode 3

Archives