Sign Up   |   Sign In  
Star Trek: DiscoveryChicago FireChicago P.D.ReunionLadies and Gentlemen: The Rolling StonesBreaking PointThe Bold and the BeautifulEvilThe RookieBoy Kills WorldMad GodAfflictionFBIFBI: Most WantedFBI: InternationalThe Fall GuyRachel Feinstein: Big GuyMoonedDark MatterWill TrentThe Good DoctorThe Manchurian CandidateVisionsExpend4blesThe Daily Show

Announcements

05/15

2024

1

Comments

Dark Matter 2024 S01E03 The Box 720p ATVP WEB-DL DDP5 1 H 264-NTb
[RR/CU]
Size: 1.3GB mkv H264 (HIGH) / EAC3  HD  1356x678

Dark Matter
File Information
[img]http://lookpic.com/cdn/i2/t/0515202403200051-1.jpg[/img]
[img]http://lookpic.com/cdn/i2/t/0515202403200051-2.jpg[/img]
[img]http://lookpic.com/cdn/i2/t/0515202403200051-3.jpg[/img]

General
Unique ID                                : 130981344440632233273681342014215586075 (0x628A16DF147D46D95605452D1122811B)
Complete name                            : Dark Matter 2024 S01E03 The Box 720p ATVP WEB-DL DDP5 1 H 264-NTb.mkv
Format                                   : Matroska
Format version                           : Version 4
File size                                : 1.26 GiB
Duration                                 : 49 min 36 s
Overall bit rate                         : 3 640 kb/s
Frame rate                               : 23.976 FPS
Writing application                      : mkvmerge v84.0 ('Sleeper') 64-bit
Writing library                          : libebml v1.4.5 + libmatroska v1.7.1

Video
ID                                       : 1
Format                                   : AVC
Format/Info                              : Advanced Video Codec
Format profile                           : [email protected]
Format settings                          : CABAC / 5 Ref Frames
Format settings, CABAC                   : Yes
Format settings, Reference frames        : 5 frames
Codec ID                                 : V_MPEG4/ISO/AVC
Duration                                 : 49 min 36 s
Bit rate                                 : 2 865 kb/s
Width                                    : 1 356 pixels
Height                                   : 678 pixels
Display aspect ratio                     : 2.000
Frame rate mode                          : Constant
Frame rate                               : 23.976 (24000/1001) FPS
Color space                              : YUV
Chroma subsampling                       : 4:2:0
Bit depth                                : 8 bits
Scan type                                : Progressive
Bits/(Pixel*Frame)                       : 0.130
Stream size                              : 1 017 MiB (79%)
Default                                  : Yes
Forced                                   : No
Color range                              : Limited
Color primaries                          : BT.709
Transfer characteristics                 : BT.709
Matrix coefficients                      : BT.709

Audio
ID                                       : 2
Format                                   : E-AC-3 JOC
Format/Info                              : Enhanced AC-3 with Joint Object Coding
Commercial name                          : Dolby Digital Plus with Dolby Atmos
Codec ID                                 : A_EAC3
Duration                                 : 49 min 36 s
Bit rate mode                            : Constant
Bit rate                                 : 768 kb/s
Channel(s)                               : 6 channels
Channel layout                           : L R C LFE Ls Rs
Sampling rate                            : 48.0 kHz
Frame rate                               : 31.250 FPS (1536 SPF)
Compression mode                         : Lossy
Stream size                              : 273 MiB (21%)
Language                                 : English
Service kind                             : Complete Main
Default                                  : Yes
Forced                                   : No
Complexity index                         : 16
Number of dynamic objects                : 15
Bed channel count                        : 1 channel
Bed channel configuration                : LFE

Text #1
ID                                       : 3
Format                                   : UTF-8
Codec ID                                 : S_TEXT/UTF8
Codec ID/Info                            : UTF-8 Plain Text
Duration                                 : 44 min 37 s
Bit rate                                 : 54 b/s
Frame rate                               : 0.213 FPS
Count of elements                        : 570
Stream size                              : 17.9 KiB (0%)
Language                                 : English
Default                                  : No
Forced                                   : No

Text #2
ID                                       : 4
Format                                   : UTF-8
Codec ID                                 : S_TEXT/UTF8
Codec ID/Info                            : UTF-8 Plain Text
Duration                                 : 46 min 45 s
Bit rate                                 : 63 b/s
Frame rate                               : 0.235 FPS
Count of elements                        : 660
Stream size                              : 21.6 KiB (0%)
Title                                    : SDH
Language                                 : English
Default                                  : No
Forced                                   : No

Text #3
ID                                       : 5
Format                                   : UTF-8
Codec ID                                 : S_TEXT/UTF8
Codec ID/Info                            : UTF-8 Plain Text
Duration                                 : 48 min 27 s
Bit rate                                 : 71 b/s
Frame rate                               : 0.199 FPS
Count of elements                        : 580
Stream size                              : 25.4 KiB (0%)
Language                                 : Arabic
Default                                  : No
Forced                                   : No

Text #4
ID                                       : 6
Format                                   : UTF-8
Codec ID                                 : S_TEXT/UTF8
Codec ID/Info                            : UTF-8 Plain Text
Duration                                 : 48 min 27 s
Bit rate                                 : 74 b/s
Frame rate                               : 0.165 FPS
Count of elements                        : 480
Stream size                              : 26.4 KiB (0%)
Language                                 : Bulgarian
Default                                  : No
Forced                                   : No

Text #5
ID                                       : 7
Format                                   : UTF-8
Codec ID                                 : S_TEXT/UTF8
Codec ID/Info                            : UTF-8 Plain Text
Duration                                 : 48 min 27 s
Bit rate                                 : 46 b/s
Frame rate                               : 0.200 FPS
Count of elements                        : 581
Stream size                              : 16.5 KiB (0%)
Title                                    : Chinese (Simplified)
Language                                 : Mandarin (Hans)
Default                                  : No
Forced                                   : No

Text #6
ID                                       : 8
Format                                   : UTF-8
Codec ID                                 : S_TEXT/UTF8
Codec ID/Info                            : UTF-8 Plain Text
Duration                                 : 48 min 27 s
Bit rate                                 : 45 b/s
Frame rate                               : 0.200 FPS
Count of elements                        : 582
Stream size                              : 16.0 KiB (0%)
Title                                    : Chinese (Traditional)
Language                                 : Mandarin (Hant)
Default                                  : No
Forced                                   : No

Text #7
ID                                       : 9
Format                                   : UTF-8
Codec ID                                 : S_TEXT/UTF8
Codec ID/Info                            : UTF-8 Plain Text
Duration                                 : 48 min 27 s
Bit rate                                 : 44 b/s
Frame rate                               : 0.191 FPS
Count of elements                        : 554
Stream size                              : 15.9 KiB (0%)
Language                                 : Czech
Default                                  : No
Forced                                   : No

Text #8
ID                                       : 10
Format                                   : UTF-8
Codec ID                                 : S_TEXT/UTF8
Codec ID/Info                            : UTF-8 Plain Text
Duration                                 : 48 min 27 s
Bit rate                                 : 45 b/s
Frame rate                               : 0.163 FPS
Count of elements                        : 474
Stream size                              : 16.0 KiB (0%)
Language                                 : Danish
Default                                  : No
Forced                                   : No

Text #9
ID                                       : 11
Format                                   : UTF-8
Codec ID                                 : S_TEXT/UTF8
Codec ID/Info                            : UTF-8 Plain Text
Duration                                 : 48 min 26 s
Bit rate                                 : 48 b/s
Frame rate                               : 0.192 FPS
Count of elements                        : 557
Stream size                              : 17.4 KiB (0%)
Language                                 : German
Default                                  : No
Forced                                   : No

Text #10
ID                                       : 12
Format                                   : UTF-8
Codec ID                                 : S_TEXT/UTF8
Codec ID/Info                            : UTF-8 Plain Text
Duration                                 : 48 min 27 s
Bit rate                                 : 82 b/s
Frame rate                               : 0.193 FPS
Count of elements                        : 561
Stream size                              : 29.2 KiB (0%)
Language                                 : Greek
Default                                  : No
Forced                                   : No

Text #11
ID                                       : 13
Format                                   : UTF-8
Codec ID                                 : S_TEXT/UTF8
Codec ID/Info                            : UTF-8 Plain Text
Duration                                 : 48 min 27 s
Bit rate                                 : 50 b/s
Frame rate                               : 0.199 FPS
Count of elements                        : 580
Stream size                              : 18.1 KiB (0%)
Title                                    : Spanish (Latin America)
Language                                 : Spanish (Latin America)
Default                                  : No
Forced                                   : No

Text #12
ID                                       : 14
Format                                   : UTF-8
Codec ID                                 : S_TEXT/UTF8
Codec ID/Info                            : UTF-8 Plain Text
Duration                                 : 48 min 27 s
Bit rate                                 : 48 b/s
Frame rate                               : 0.202 FPS
Count of elements                        : 587
Stream size                              : 17.1 KiB (0%)
Title                                    : Spanish (Spain)
Language                                 : Spanish (ES)
Default                                  : No
Forced                                   : No

Text #13
ID                                       : 15
Format                                   : UTF-8
Codec ID                                 : S_TEXT/UTF8
Codec ID/Info                            : UTF-8 Plain Text
Duration                                 : 48 min 27 s
Bit rate                                 : 48 b/s
Frame rate                               : 0.196 FPS
Count of elements                        : 571
Stream size                              : 17.1 KiB (0%)
Language                                 : Estonian
Default                                  : No
Forced                                   : No

Text #14
ID                                       : 16
Format                                   : UTF-8
Codec ID                                 : S_TEXT/UTF8
Codec ID/Info                            : UTF-8 Plain Text
Duration                                 : 48 min 27 s
Bit rate                                 : 51 b/s
Frame rate                               : 0.198 FPS
Count of elements                        : 577
Stream size                              : 18.3 KiB (0%)
Language                                 : Finnish
Default                                  : No
Forced                                   : No

Text #15
ID                                       : 17
Format                                   : UTF-8
Codec ID                                 : S_TEXT/UTF8
Codec ID/Info                            : UTF-8 Plain Text
Duration                                 : 48 min 25 s
Bit rate                                 : 46 b/s
Frame rate                               : 0.219 FPS
Count of elements                        : 635
Stream size                              : 16.3 KiB (0%)
Title                                    : French (Canada)
Language                                 : French (CA)
Default                                  : No
Forced                                   : No

Text #16
ID                                       : 18
Format                                   : UTF-8
Codec ID                                 : S_TEXT/UTF8
Codec ID/Info                            : UTF-8 Plain Text
Duration                                 : 48 min 25 s
Bit rate                                 : 45 b/s
Frame rate                               : 0.218 FPS
Count of elements                        : 634
Stream size                              : 16.3 KiB (0%)
Title                                    : French (France)
Language                                 : French (FR)
Default                                  : No
Forced                                   : No

Text #17
ID                                       : 19
Format                                   : UTF-8
Codec ID                                 : S_TEXT/UTF8
Codec ID/Info                            : UTF-8 Plain Text
Duration                                 : 48 min 27 s
Bit rate                                 : 67 b/s
Frame rate                               : 0.200 FPS
Count of elements                        : 581
Stream size                              : 23.8 KiB (0%)
Language                                 : Hebrew
Default                                  : No
Forced                                   : No

Text #18
ID                                       : 20
Format                                   : UTF-8
Codec ID                                 : S_TEXT/UTF8
Codec ID/Info                            : UTF-8 Plain Text
Duration                                 : 48 min 27 s
Bit rate                                 : 136 b/s
Frame rate                               : 0.200 FPS
Count of elements                        : 583
Stream size                              : 48.4 KiB (0%)
Language                                 : Hindi
Default                                  : No
Forced                                   : No

Text #19
ID                                       : 21
Format                                   : UTF-8
Codec ID                                 : S_TEXT/UTF8
Codec ID/Info                            : UTF-8 Plain Text
Duration                                 : 48 min 27 s
Bit rate                                 : 49 b/s
Frame rate                               : 0.196 FPS
Count of elements                        : 571
Stream size                              : 17.5 KiB (0%)
Language                                 : Hungarian
Default                                  : No
Forced                                   : No

Text #20
ID                                       : 22
Format                                   : UTF-8
Codec ID                                 : S_TEXT/UTF8
Codec ID/Info                            : UTF-8 Plain Text
Duration                                 : 48 min 27 s
Bit rate                                 : 46 b/s
Frame rate                               : 0.198 FPS
Count of elements                        : 576
Stream size                              : 16.5 KiB (0%)
Language                                 : Indonesian
Default                                  : No
Forced                                   : No

Text #21
ID                                       : 23
Format                                   : UTF-8
Codec ID                                 : S_TEXT/UTF8
Codec ID/Info                            : UTF-8 Plain Text
Duration                                 : 47 min 42 s
Bit rate                                 : 48 b/s
Frame rate                               : 0.200 FPS
Count of elements                        : 572
Stream size                              : 16.9 KiB (0%)
Language                                 : Italian
Default                                  : No
Forced                                   : No

Text #22
ID                                       : 24
Format                                   : UTF-8
Codec ID                                 : S_TEXT/UTF8
Codec ID/Info                            : UTF-8 Plain Text
Duration                                 : 48 min 27 s
Bit rate                                 : 41 b/s
Frame rate                               : 0.186 FPS
Count of elements                        : 542
Stream size                              : 14.9 KiB (0%)
Language                                 : Japanese
Default                                  : No
Forced                                   : No

Text #23
ID                                       : 25
Format                                   : UTF-8
Codec ID                                 : S_TEXT/UTF8
Codec ID/Info                            : UTF-8 Plain Text
Duration                                 : 48 min 27 s
Bit rate                                 : 52 b/s
Frame rate                               : 0.200 FPS
Count of elements                        : 581
Stream size                              : 18.5 KiB (0%)
Language                                 : Korean
Default                                  : No
Forced                                   : No

Text #24
ID                                       : 26
Format                                   : UTF-8
Codec ID                                 : S_TEXT/UTF8
Codec ID/Info                            : UTF-8 Plain Text
Duration                                 : 48 min 27 s
Bit rate                                 : 50 b/s
Frame rate                               : 0.198 FPS
Count of elements                        : 576
Stream size                              : 17.8 KiB (0%)
Language                                 : Lithuanian
Default                                  : No
Forced                                   : No

Text #25
ID                                       : 27
Format                                   : UTF-8
Codec ID                                 : S_TEXT/UTF8
Codec ID/Info                            : UTF-8 Plain Text
Duration                                 : 48 min 27 s
Bit rate                                 : 50 b/s
Frame rate                               : 0.199 FPS
Count of elements                        : 578
Stream size                              : 18.1 KiB (0%)
Language                                 : Latvian
Default                                  : No
Forced                                   : No

Text #26
ID                                       : 28
Format                                   : UTF-8
Codec ID                                 : S_TEXT/UTF8
Codec ID/Info                            : UTF-8 Plain Text
Duration                                 : 48 min 27 s
Bit rate                                 : 47 b/s
Frame rate                               : 0.198 FPS
Count of elements                        : 576
Stream size                              : 16.9 KiB (0%)
Language                                 : Malay
Default                                  : No
Forced                                   : No

Text #27
ID                                       : 29
Format                                   : UTF-8
Codec ID                                 : S_TEXT/UTF8
Codec ID/Info                            : UTF-8 Plain Text
Duration                                 : 48 min 27 s
Bit rate                                 : 45 b/s
Frame rate                               : 0.151 FPS
Count of elements                        : 440
Stream size                              : 16.0 KiB (0%)
Language                                 : Dutch
Default                                  : No
Forced                                   : No

Text #28
ID                                       : 30
Format                                   : UTF-8
Codec ID                                 : S_TEXT/UTF8
Codec ID/Info                            : UTF-8 Plain Text
Duration                                 : 48 min 27 s
Bit rate                                 : 44 b/s
Frame rate                               : 0.181 FPS
Count of elements                        : 527
Stream size                              : 15.7 KiB (0%)
Language                                 : Norwegian
Default                                  : No
Forced                                   : No

Text #29
ID                                       : 31
Format                                   : UTF-8
Codec ID                                 : S_TEXT/UTF8
Codec ID/Info                            : UTF-8 Plain Text
Duration                                 : 48 min 27 s
Bit rate                                 : 48 b/s
Frame rate                               : 0.196 FPS
Count of elements                        : 569
Stream size                              : 17.1 KiB (0%)
Language                                 : Polish
Default                                  : No
Forced                                   : No

Text #30
ID                                       : 32
Format                                   : UTF-8
Codec ID                                 : S_TEXT/UTF8
Codec ID/Info                            : UTF-8 Plain Text
Duration                                 : 48 min 27 s
Bit rate                                 : 49 b/s
Frame rate                               : 0.197 FPS
Count of elements                        : 573
Stream size                              : 17.5 KiB (0%)
Title                                    : Portuguese
Language                                 : Portuguese
Default                                  : No
Forced                                   : No

Text #31
ID                                       : 33
Format                                   : UTF-8
Codec ID                                 : S_TEXT/UTF8
Codec ID/Info                            : UTF-8 Plain Text
Duration                                 : 48 min 27 s
Bit rate                                 : 48 b/s
Frame rate                               : 0.187 FPS
Count of elements                        : 545
Stream size                              : 17.2 KiB (0%)
Title                                    : Portuguese (Brazil)
Language                                 : Portuguese (BR)
Default                                  : No
Forced                                   : No

Text #32
ID                                       : 34
Format                                   : UTF-8
Codec ID                                 : S_TEXT/UTF8
Codec ID/Info                            : UTF-8 Plain Text
Duration                                 : 48 min 27 s
Bit rate                                 : 77 b/s
Frame rate                               : 0.200 FPS
Count of elements                        : 582
Stream size                              : 27.4 KiB (0%)
Language                                 : Russian
Default                                  : No
Forced                                   : No

Text #33
ID                                       : 35
Format                                   : UTF-8
Codec ID                                 : S_TEXT/UTF8
Codec ID/Info                            : UTF-8 Plain Text
Duration                                 : 48 min 27 s
Bit rate                                 : 47 b/s
Frame rate                               : 0.198 FPS
Count of elements                        : 575
Stream size                              : 16.8 KiB (0%)
Language                                 : Slovak
Default                                  : No
Forced                                   : No

Text #34
ID                                       : 36
Format                                   : UTF-8
Codec ID                                 : S_TEXT/UTF8
Codec ID/Info                            : UTF-8 Plain Text
Duration                                 : 48 min 27 s
Bit rate                                 : 41 b/s
Frame rate                               : 0.174 FPS
Count of elements                        : 507
Stream size                              : 14.6 KiB (0%)
Language                                 : Slovenian
Default                                  : No
Forced                                   : No

Text #35
ID                                       : 37
Format                                   : UTF-8
Codec ID                                 : S_TEXT/UTF8
Codec ID/Info                            : UTF-8 Plain Text
Duration                                 : 48 min 27 s
Bit rate                                 : 50 b/s
Frame rate                               : 0.194 FPS
Count of elements                        : 563
Stream size                              : 18.0 KiB (0%)
Language                                 : Swedish
Default                                  : No
Forced                                   : No

Text #36
ID                                       : 38
Format                                   : UTF-8
Codec ID                                 : S_TEXT/UTF8
Codec ID/Info                            : UTF-8 Plain Text
Duration                                 : 48 min 27 s
Bit rate                                 : 167 b/s
Frame rate                               : 0.200 FPS
Count of elements                        : 582
Stream size                              : 59.4 KiB (0%)
Language                                 : Tamil
Default                                  : No
Forced                                   : No

Text #37
ID                                       : 39
Format                                   : UTF-8
Codec ID                                 : S_TEXT/UTF8
Codec ID/Info                            : UTF-8 Plain Text
Duration                                 : 48 min 27 s
Bit rate                                 : 152 b/s
Frame rate                               : 0.200 FPS
Count of elements                        : 582
Stream size                              : 54.0 KiB (0%)
Language                                 : Telugu
Default                                  : No
Forced                                   : No

Text #38
ID                                       : 40
Format                                   : UTF-8
Codec ID                                 : S_TEXT/UTF8
Codec ID/Info                            : UTF-8 Plain Text
Duration                                 : 48 min 27 s
Bit rate                                 : 117 b/s
Frame rate                               : 0.200 FPS
Count of elements                        : 581
Stream size                              : 41.7 KiB (0%)
Language                                 : Thai
Default                                  : No
Forced                                   : No

Text #39
ID                                       : 41
Format                                   : UTF-8
Codec ID                                 : S_TEXT/UTF8
Codec ID/Info                            : UTF-8 Plain Text
Duration                                 : 48 min 27 s
Bit rate                                 : 51 b/s
Frame rate                               : 0.189 FPS
Count of elements                        : 551
Stream size                              : 18.2 KiB (0%)
Language                                 : Turkish
Default                                  : No
Forced                                   : No

Text #40
ID                                       : 42
Format                                   : UTF-8
Codec ID                                 : S_TEXT/UTF8
Codec ID/Info                            : UTF-8 Plain Text
Duration                                 : 48 min 27 s
Bit rate                                 : 76 b/s
Frame rate                               : 0.200 FPS
Count of elements                        : 581
Stream size                              : 27.2 KiB (0%)
Language                                 : Ukrainian
Default                                  : No
Forced                                   : No

Text #41
ID                                       : 43
Format                                   : UTF-8
Codec ID                                 : S_TEXT/UTF8
Codec ID/Info                            : UTF-8 Plain Text
Duration                                 : 48 min 27 s
Bit rate                                 : 65 b/s
Frame rate                               : 0.199 FPS
Count of elements                        : 579
Stream size                              : 23.1 KiB (0%)
Language                                 : Vietnamese
Default                                  : No
Forced                                   : No

Text #42
ID                                       : 44
Format                                   : UTF-8
Codec ID                                 : S_TEXT/UTF8
Codec ID/Info                            : UTF-8 Plain Text
Duration                                 : 48 min 27 s
Bit rate                                 : 44 b/s
Frame rate                               : 0.200 FPS
Count of elements                        : 582
Stream size                              : 15.8 KiB (0%)
Title                                    : Cantonese (Traditional)
Language                                 : Cantonese (Hant)
Default                                  : No
Forced                                   : No

Menu
00:00:07.040                             : en:Intro
00:01:01.416                             : en:Chapter 1



Download
File Container: MKV
Video/Audio Codec: H264 (HIGH) EAC3
Video Resolution: 1356x678

1 Response to "[RR/CU] Dark Matter 2024 S01E03 The Box 720p ATVP WEB-DL DDP5 1 H 264-NTb (1.3GB)"
05/15/24
04:10:29
ReadyPlayerOne

Thank you!

Please Login to post a comment.
If you don't have any account, please Register.
  • Subscribe my Feeds
  • Facebook
Encoding Queue:  x264  x265

Latest Episodes

Popular Movies and TV Shows

  • Star Trek: Discovery
  • Chicago Fire
  • Chicago P.D.
  • Reunion
  • Ladies and Gentlemen: The Rolling Stones
  • Breaking Point
  • The Bold and the Beautiful
  • Evil
  • The Rookie
  • Boy Kills World
  • Mad God
  • Affliction
  • FBI
  • FBI: Most Wanted
  • FBI: International
  • The Fall Guy
  • Rachel Feinstein: Big Guy
  • Mooned
  • Dark Matter
  • Will Trent
  • The Good Doctor
  • The Manchurian Candidate
  • Visions
  • Expend4bles
  • The Daily Show

Recent Comments

  • big_ralphie: Just sitting down to watch and, yes there are subtitles...in ITALIAN ONLY. ENGLISH subs might be hel...
  • Geependo:

    All links are dead

  • OldMovies:

    Has Czech subtitles but not English. Need forced English for the foreign language parts.

  • PROFessorMorrynarty: Would it be possible to upload 'Lego masters Australia' Series 6 Episode 6 Please? It's the only one...
  • mentalityx:

    Thx mate.

  • Bud: Is the search engine down for everyone, or just me? It just says 'You're forbidden!' whenever I lo...
  • 23d1:

    not episode 4 it is episode 3

  • 23d1:

    not episode 4 it is episode 3

  • 23d1:

    not episode 4 it is episode 3

  • 23d1:

    not episode 4 it is episode 3

Archives